<?xml version="1.0" standalone="no"?>
<!DOCTYPE svg PUBLIC "-//W3C//DTD SVG 1.1//EN" "http://www.w3.org/Graphics/SVG/1.1/DTD/svg11.dtd" >
<svg xmlns="http://www.w3.org/2000/svg">
<metadata>Generated by IcoMoon</metadata>
<defs>
<font id="icomoon" horiz-adv-x="1024">
<font-face units-per-em="1024" ascent="960" descent="-64" />
<missing-glyph horiz-adv-x="1024" />
<glyph unicode="&#x20;" horiz-adv-x="512" d="" />
<glyph unicode="&#xe900;" glyph-name="plus" d="M505.956 851.911l-9.956-8.533-2.133-363.378h-197.333c-128.711 0-199.822-1.422-204.444-3.556-10.311-5.689-18.133-23.822-15.644-35.911 1.422-5.689 6.4-13.511 11.378-17.422 8.533-6.756 14.222-7.111 100.622-7.111 50.133 0 139.378-1.067 198.4-2.489l107.378-2.133v-411.733l8.889-8.533c12.444-12.8 31.289-12.089 44.8 1.422l10.311 10.311v409.6h181.333c196.978 0 196.622 0 205.511 19.556 6.4 14.222 5.333 22.044-6.044 34.489l-10.311 11.733-369.778 2.133 1.778 174.933c2.133 158.578 1.422 176-3.911 186.311-10.667 20.622-33.422 25.244-50.844 10.311z" />
<glyph unicode="&#xe901;" glyph-name="minus" d="M100.978 480.711c-18.133-3.556-29.867-26.311-22.4-44.089 8.889-21.689-14.578-20.622 438.044-20.622h413.867l7.467 8.178c10.667 11.378 12.8 24.533 6.4 37.689-3.2 6.044-8.533 12.444-12.089 14.222-5.689 2.844-814.933 7.467-831.289 4.622z" />
<glyph unicode="&#xe902;" glyph-name="burgermenu" d="M960 63.999h-895.999c-35.348 0-64 28.655-64 64s28.653 64 64 64h896.001c35.345 0 64-28.655 64-64-0.002-35.345-28.655-64-64.003-64zM960 384.001h-895.999c-35.348 0-64 28.653-64 63.998s28.653 64 64 64h896.001c35.345 0 64-28.653 64-64s-28.655-63.998-64.003-63.998zM960 704.001h-895.999c-35.348 0-64 28.653-64 64s28.653 64 64 64h896.001c35.345 0 64-28.653 64-64s-28.655-64-64.003-64z" />
<glyph unicode="&#xe903;" glyph-name="card-arrow" d="M512.054 789.369l-60.197-60.197 238.112-238.487h-519.498v-85.315h519.498l-238.112-238.541 60.197-60.144 341.315 341.369z" />
<glyph unicode="&#xe904;" glyph-name="delete" d="M609.134 127.976h47.982c13.25 0 23.991 10.741 23.991 23.991v0 431.982c0 13.25-10.741 23.991-23.991 23.991v0h-47.982c-13.25 0-23.991-10.741-23.991-23.991v0-432.177c0.11-13.166 10.809-23.796 23.99-23.796 0 0 0.001 0 0.001 0v0zM937.155 799.963h-164.815l-68.023 113.42c-18.33 26.811-48.048 44.677-82.029 46.604l-0.281 0.013h-201.679c-34.262-1.939-63.98-19.805-82.074-46.252l-0.236-0.365-68.267-113.42h-164.62c-17.666 0-31.988-14.321-31.988-31.988v0-31.988c0-17.666 14.321-31.988 31.988-31.988h31.988v-671.988c0-53.026 42.986-96.012 96.012-96.012h576.024c53.026 0 96.012 42.986 96.012 96.012v0 671.988h31.988c17.666 0 31.988 14.321 31.988 31.988v31.988c0 0.014 0 0.032 0 0.049 0 17.666-14.321 31.988-31.988 31.988 0 0 0 0 0 0v0zM416.817 858.185c2.297 3.341 6.010 5.565 10.254 5.801l0.035 0.002h188.026c4.279-0.237 7.992-2.461 10.26-5.758l0.029-0.045 34.914-58.173h-278.43zM809.155 32.012h-576.024v671.988h576.024zM385.219 127.976h47.982c13.161 0.027 23.832 10.647 23.942 23.785v431.992c0 13.25-10.741 23.991-23.991 23.991h-47.933c-13.25 0-23.991-10.741-23.991-23.991v0-431.982c0.11-13.166 10.809-23.796 23.99-23.796 0 0 0.001 0 0.001 0v0z" />
<glyph unicode="&#xe905;" glyph-name="edit" d="M983.211 812.715l-107.691 107.691c-24.419 24.443-58.166 39.563-95.445 39.563s-71.026-15.12-95.444-39.562l-0.001-0.001-634.795-630.613-49.152-297.984c-0.418-2.378-0.657-5.116-0.657-7.91 0-26.486 21.471-47.957 47.957-47.957 2.794 0 5.532 0.239 8.195 0.697l-0.285-0.041 297.984 49.152 630.613 634.795c24.406 24.439 39.5 58.183 39.5 95.453 0 37.902-15.61 72.159-40.752 96.691l-0.028 0.027zM241.323 356.011l340.48 338.347 176.469-176.555-338.261-340.48v82.944h-95.744v95.744zM164.523 43.776l-56.491 56.491 23.979 147.2 36.779 36.523h83.2v-96h96v-83.2l-36.523-36.779zM922.453 682.837v0l-96.512-96.939-176.043 176.043 96.683 96.085c8.498 8.523 20.252 13.797 33.237 13.797s24.739-5.274 33.236-13.796l107.692-107.692c9.253-8.611 15.022-20.858 15.022-34.453 0-12.884-5.182-24.558-13.576-33.051l0.004 0.005z" />
<glyph unicode="&#xe906;" glyph-name="heartfull" horiz-adv-x="1147" d="M1063.339 859.392c-52.984 61.731-131.099 100.593-218.291 100.593-101.846 0-191.308-53.022-242.287-132.969l-0.691-1.16c-9.387-13.276-18.852-28.622-27.377-44.547l-1.167-2.387c-9.69 18.31-19.155 33.656-29.487 48.348l0.943-1.415c-51.671 81.106-141.133 134.129-242.979 134.129-87.192 0-165.306-38.862-217.969-100.209l-0.322-0.384c-52.072-61.187-83.746-141.132-83.746-228.475 0-1.712 0.012-3.421 0.036-5.127l-0.003 0.258c3.69-109.684 47.658-208.436 117.493-282.541l-0.202 0.216c90.536-99.482 186.415-190.155 288.677-273.277l4.827-3.8c44.373-38.4 90.283-77.739 139.179-120.96l1.451-1.28c5.861-5.219 13.63-8.408 22.144-8.408s16.282 3.189 22.177 8.437l-0.033-0.029 1.451 1.28c48.853 43.221 94.763 82.731 139.179 120.96 107.092 86.922 202.97 177.595 291.614 274.971l1.89 2.107c69.624 73.879 113.59 172.614 117.271 281.564l0.019 0.718c0.021 1.431 0.033 3.12 0.033 4.812 0 87.389-31.707 167.372-84.244 229.073l0.414-0.498z" />
<glyph unicode="&#xe907;" glyph-name="user" d="M512.020 960c-0.012 0-0.025 0-0.039 0-282.781 0-512.020-229.239-512.020-512.020s229.239-512.020 512.020-512.020c282.781 0 512.020 229.239 512.020 512.020v0c-0.335 282.633-229.352 511.663-511.947 512.020h-0.034zM512.020 17.033c-238.049 0-431.026 192.977-431.026 431.026s192.977 431.026 431.026 431.026c238.049 0 431.026-192.977 431.026-431.026v0c-0.245-237.95-193.076-430.781-431.002-431.026h-0.023zM512.020 357.151c-156.58-4.155-293.936-82.872-378.343-201.805l-0.999-1.482 64.301-49.333c67.818 103.894 183.523 171.6 315.041 171.6s247.222-67.705 314.16-170.162l0.881-1.437 64.301 49.333c-85.402 120.42-222.761 199.14-378.708 203.274l-0.634 0.013zM512.020 697.897c-0.314 0.002-0.686 0.003-1.058 0.003-90.653 0-164.143-73.489-164.143-164.143s73.489-164.143 164.143-164.143c90.652 0 164.141 73.487 164.143 164.139v0c0 0.105 0 0.23 0 0.354 0 90.211-72.93 163.388-163.047 163.788h-0.038zM512.020 432.346c-0.314-0.004-0.686-0.006-1.058-0.006-56.006 0-101.409 45.402-101.409 101.409s45.402 101.409 101.409 101.409c56.004 0 101.405-45.399 101.409-101.403v0c0-0.117 0.001-0.255 0.001-0.394 0-55.556-44.848-100.637-100.316-101.014h-0.036z" />
<glyph unicode="&#xe908;" glyph-name="print" d="M904.022 641.994h-102.019v318.006h-580.007v-318.006h-101.985c-66.25-0.077-119.935-53.762-120.012-120.005v-324.090c0.077-66.25 53.762-119.935 120.005-120.012h101.992v-141.989h580.007v142.090h101.985c66.25 0.077 119.935 53.762 120.012 120.005v324.090c-0.134 66.194-53.778 119.815-119.969 119.911h-0.009zM302.005 879.992h419.991v-237.998h-419.991zM302.005 15.974v266.018h419.991v-266.018zM944.026 197.967c-0.019-22.086-17.918-39.985-40.002-40.004h-102.020v124.029h62.015v80.008h-704.002v-80.008h61.981v-123.995h-101.985c-22.086 0.019-39.985 17.918-40.004 40.002v324.085c0.077 22.042 17.954 39.884 40.002 39.903h784.012c22.086-0.019 39.985-17.918 40.004-40.002v-0.002zM642.021 799.984v-80.008h-259.941v80.008z" />
<glyph unicode="&#xe909;" glyph-name="product_lock" horiz-adv-x="1042" d="M523.326 94.082c-193.858 0-351.649 157.791-351.649 351.649s157.791 351.649 351.649 351.649c193.858 0 351.649-157.791 351.649-351.649s-157.791-351.649-351.649-351.649zM523.326 878.529c-238.58 0-432.799-194.218-432.799-432.799 0-238.562 194.218-432.799 432.799-432.799s432.799 194.236 432.799 432.799c0 238.58-194.218 432.799-432.799 432.799zM541.359 761.311h-36.067v-54.1h36.067zM784.808 427.695h54.1v36.067h-54.1zM505.292 130.146h36.067v54.1h-36.067zM207.743 427.695h54.1v36.067h-54.1zM672.876 620.78l-149.55-149.532-95.45 95.432c-7.051 7.051-18.448 7.051-25.499 0s-7.051-18.448 0-25.499l95.45-95.45-23.317-23.317c-7.051-7.051-7.051-18.448 0-25.499 3.516-3.516 8.133-5.284 12.75-5.284s9.233 1.767 12.75 5.284l23.317 23.317 23.317-23.317c3.516-3.516 8.133-5.284 12.75-5.284s9.233 1.767 12.75 5.284c7.051 7.051 7.051 18.448 0 25.499l-23.317 23.317 149.55 149.55c7.051 7.051 7.051 18.448 0 25.499s-18.448 7.051-25.499 0z" />
<glyph unicode="&#xe90a;" glyph-name="search" d="M451.328 168.064c188.113 0 340.608 152.495 340.608 340.608s-152.495 340.608-340.608 340.608c-188.113 0-340.608-152.495-340.608-340.608v0c0.58-187.879 152.729-340.028 340.552-340.608h0.056zM809.003 227.797l195.84-195.84c11.808-8.794 19.373-22.713 19.373-38.4s-7.565-29.606-19.246-38.31l-0.127-0.090c-8.794-11.808-22.713-19.373-38.4-19.373s-29.606 7.565-38.31 19.246l-0.090 0.127-195.84 195.84c-74.823-58.571-170.276-93.922-273.986-93.922-2.467 0-4.93 0.020-7.388 0.060l0.371-0.005c-2.242-0.041-4.887-0.064-7.536-0.064-245.067 0-443.733 198.666-443.733 443.733 0 2.768 0.025 5.53 0.076 8.286l-0.006-0.414c-0.004 0.737-0.007 1.609-0.007 2.482 0 247.895 200.958 448.853 448.853 448.853 0.872 0 1.744-0.002 2.615-0.007l-0.134 0.001c248.582-1.681 449.647-202.745 451.327-451.167l0.001-0.161c0.399-6.699 0.626-14.533 0.626-22.42 0-98.771-35.643-189.216-94.769-259.176l0.489 0.594z" />
<glyph unicode="&#xe90b;" glyph-name="cart" d="M37.871 876.387h108.627l154.739-617.103c3.746-17.226 18.594-30.032 36.531-30.617l0.062-0.002h475.592c15.952 0.447 29.41 10.649 34.654 24.833l0.085 0.263 172.789 438.792c1.942 4.904 3.068 10.586 3.068 16.53 0 8.529-2.318 16.518-6.358 23.369l0.117-0.215c-6.338 11.159-18.057 18.615-31.536 18.832h-525.32c-21.433-2.081-38.050-20.003-38.050-41.806s16.617-39.726 37.878-41.793l0.172-0.014h467.268l-140.11-355.221h-421.856l-154.575 617.103c-3.746 17.226-18.594 30.032-36.531 30.617l-0.062 0.002h-137.184c-21.433-2.081-38.050-20.003-38.050-41.806s16.617-39.726 37.878-41.793l0.172-0.014zM305.234-64c0.441-0.007 0.962-0.012 1.484-0.012 52.095 0 94.327 42.232 94.327 94.327s-42.232 94.327-94.327 94.327c-52.077 0-94.297-42.202-94.327-94.271v-0.003c-0.002-0.234-0.003-0.51-0.003-0.786 0-51.426 41.48-93.164 92.807-93.582h0.040zM823.519-64h6.799c51.568 1.883 92.658 44.142 92.658 95.998 0 53.051-43.007 96.058-96.058 96.058s-96.058-43.007-96.058-96.058c0-51.856 41.090-94.114 92.487-95.993l0.171-0.005z" />
<glyph unicode="&#xe90c;" glyph-name="help" horiz-adv-x="1025" d="M499.023 312.264h-0.352c-21.653 0.154-39.147 17.743-39.147 39.418 0 0.124 0.001 0.248 0.002 0.372v-0.019 19.573c-0.028 0.509-0.045 1.104-0.045 1.703s0.016 1.194 0.048 1.785l-0.004-0.082c8.543 49.782 35.56 92.067 73.599 120.366l0.503 0.358c10.373 9.591 20.199 18.633 28.537 28.067 9.809 9.68 15.885 23.122 15.885 37.984 0 9.32-2.39 18.083-6.59 25.707l0.139-0.276c-15.924 22.872-42.087 37.654-71.703 37.654-8.537 0-16.787-1.228-24.584-3.518l0.616 0.155c-26.842-7.155-47.331-28.492-53.15-55.299l-0.088-0.483c-4.653-16.969-19.938-29.232-38.088-29.232-21.776 0-39.43 17.653-39.43 39.43 0 3.627 0.49 7.139 1.406 10.474l-0.065-0.277c13.081 55.784 56.090 98.936 110.781 112.024l1.018 0.206c12.677 3.517 27.234 5.539 42.263 5.539 59.086 0 110.875-31.243 139.747-78.109l0.407-0.709c10.211-18.269 16.224-40.083 16.224-63.302 0-34.954-13.626-66.725-35.857-90.291l0.061 0.065c-10.866-11.866-21.977-22.853-33.609-33.271l-0.447-0.394c-28.263-26.11-45.956-43.569-48.971-68.778v-17.811c-0.133-21.648-17.713-39.145-39.379-39.145 0 0 0 0-0.001 0v0zM499.023 194.084c-10.835 0.026-20.646 4.385-27.798 11.435l0.005-0.005c-7.211 7.104-11.678 16.976-11.678 27.891s4.467 20.787 11.673 27.886l0.005 0.005c7.259 6.784 17.040 10.949 27.793 10.949s20.534-4.165 27.816-10.97l-0.023 0.022c7.212-7.073 11.697-16.905 11.744-27.784v-0.009c0.001-0.082 0.001-0.178 0.001-0.275 0-21.619-17.526-39.145-39.145-39.145-0.097 0-0.193 0-0.29 0.001h0.015zM510.884-64.196c-0.1 0-0.218 0-0.336 0-46.868 0-92.255 6.344-135.348 18.22l3.569-0.839c-222.136 60.623-382.738 260.598-382.738 498.083 0 284.683 230.781 515.464 515.464 515.464s515.464-230.781 515.464-515.464c0-284.683-230.781-515.464-515.464-515.464-0.215 0-0.43 0-0.644 0h0.033zM513.39 881.161c-0.408 0.001-0.89 0.002-1.373 0.002-239.304 0-433.299-193.994-433.299-433.299 0-199.22 134.448-367.038 317.558-417.668l3.044-0.718c33.416-9.322 71.788-14.68 111.412-14.68 0.067 0 0.134 0 0.201 0h-0.010c0.417-0.001 0.911-0.002 1.405-0.002 239.412 0 433.494 194.082 433.494 433.494 0 168.843-96.529 315.141-237.412 386.716l-2.467 1.137c-56.019 28.389-122.134 45.017-192.132 45.017-0.149 0-0.298 0-0.447 0h0.023z" />
<glyph unicode="&#xe90d;" glyph-name="heart" horiz-adv-x="1146" d="M1053.377 850.885c-100.721 117.508-281.18 134.295-398.689 29.377-20.984-16.787-41.967-41.967-54.557-62.951-8.393-16.787-20.984-29.377-29.377-46.164-8.393 16.787-16.787 29.377-29.377 46.164-79.738 134.295-256 172.066-386.098 92.328-25.18-16.787-46.164-33.574-62.951-58.754-54.557-62.951-83.934-142.689-83.934-226.623 4.197-104.918 46.164-201.443 113.311-276.984 88.131-96.525 184.656-188.852 289.574-272.787 41.967-37.77 88.131-75.541 138.492-117.508v0c12.59-12.59 29.377-12.59 41.967 0v0c46.164 41.967 92.328 79.738 138.492 117.508 104.918 83.934 201.443 176.262 289.574 272.787 71.344 75.541 113.311 172.066 113.311 276.984 4.197 83.934-25.18 163.672-79.738 226.623zM688.262 124.852c-37.77-33.574-75.541-67.148-117.508-100.721-41.967 37.77-79.738 71.344-117.508 100.721-226.623 197.246-377.705 327.344-377.705 499.41 0 67.148 20.984 134.295 67.148 184.656 41.967 50.361 104.918 75.541 167.869 75.541 75.541 0 142.689-41.967 180.459-104.918 20.984-29.377 37.77-67.148 50.361-100.721 4.197-16.787 25.18-25.18 41.967-20.984 8.393 4.197 16.787 12.59 20.984 20.984 12.59 37.77 29.377 71.344 50.361 100.721 37.77 62.951 109.115 100.721 180.459 104.918 62.951 0 125.902-29.377 167.869-75.541 41.967-50.361 67.148-117.508 67.148-184.656 0-172.066-151.082-302.164-381.902-499.41z" />
<glyph unicode="&#xe90e;" glyph-name="ordini_spunta" horiz-adv-x="812" d="M811.447 115.556l-45.732 576.234c-3.089 37.088-33.867 66.043-71.445 66.219h-90.358v4.045c0 109.322-88.623 197.946-197.946 197.946s-197.946-88.623-197.946-197.946v0-4.045h-90.302c-37.579-0.155-68.354-29.080-71.445-65.881l-0.018-0.263-45.769-576.384c-0.31-3.812-0.487-8.253-0.487-12.734 0-92.092 74.655-166.746 166.746-166.746h478.478c0.002 0 0.004 0 0.006 0 92.092 0 166.746 74.655 166.746 166.746 0 4.508-0.179 8.975-0.53 13.392l0.037-0.583zM268.023 762.054c0 76.195 61.768 137.963 137.963 137.963s137.963-61.768 137.963-137.963v0-4.045h-275.926zM723.542 30.16c-19.377-21.053-47.067-34.197-77.826-34.197-0.172 0-0.345 0-0.517 0.001h-478.451c-0.002 0-0.005 0-0.007 0-58.953 0-106.745 47.791-106.745 106.745 0 2.847 0.111 5.668 0.33 8.459l-0.023-0.369 45.732 576.421c0.499 6.067 5.536 10.804 11.684 10.824h90.342v-73.897c0-16.548 13.415-29.963 29.963-29.963s29.963 13.415 29.963 29.963v0 73.86h275.926v-73.86c0-16.548 13.415-29.963 29.963-29.963s29.963 13.415 29.963 29.963v0 73.86h90.34c6.166-0.042 11.206-4.809 11.683-10.858l0.003-0.041 45.732-576.234c0.225-2.585 0.353-5.594 0.353-8.632 0-27.891-10.807-53.258-28.462-72.142l0.056 0.060zM541.027 451.408c-5.423 5.429-12.919 8.788-21.199 8.788s-15.776-3.359-21.199-8.788v0l-133.899-133.899-51.5 51.5c-5.425 5.425-12.92 8.781-21.199 8.781-16.558 0-29.98-13.423-29.98-29.98 0-8.279 3.356-15.774 8.781-21.199l72.699-72.699c5.423-5.429 12.919-8.788 21.199-8.788s15.776 3.359 21.199 8.788v0l155.136 155.136c5.407 5.42 8.75 12.9 8.75 21.162 0 8.28-3.359 15.776-8.788 21.199v0z" />
<glyph unicode="&#xe90f;" glyph-name="home" horiz-adv-x="1035" d="M997.839 515.27v0l-414.832 411.095c-37.372 37.372-97.168 37.372-130.803 0l-411.095-411.095c-37.372-37.372-37.372-97.168 0-130.803 14.949-14.949 37.372-26.161 63.533-26.161 0 0 3.737 0 3.737 0h14.949v-302.715c0-59.796 48.584-108.38 108.38-108.38h160.701c14.949 0 29.898 14.949 29.898 29.898v0 239.182c0 26.161 22.423 48.584 48.584 48.584h97.168c26.161 0 48.584-22.423 48.584-48.584v-239.182c0-14.949 14.949-29.898 29.898-29.898 0 0 0 0 0 0h160.701c59.796 0 108.38 48.584 108.38 108.38v302.715h14.949c52.321 0 93.431 41.109 93.431 93.431 0 22.423-11.212 44.847-26.161 63.533v0zM952.993 425.577c-7.474-7.474-14.949-11.212-22.423-11.212h-44.847c-14.949 0-29.898-14.949-29.898-29.898v0-332.613c0-26.161-22.423-48.584-48.584-48.584h-134.54v209.285c0 59.796-48.584 108.38-108.38 108.38h-97.168c-59.796 0-108.38-48.584-108.38-108.38v-209.285h-130.803c-26.161 0-48.584 22.423-48.584 48.584v332.613c0 14.949-14.949 29.898-29.898 29.898h-44.847c-18.686 0-33.635 14.949-33.635 33.635 0 7.474 3.737 18.686 11.212 22.423v0l411.095 411.095c14.949 14.949 33.635 14.949 48.584 0 0 0 0 0 0 0l414.832-411.095c11.212-11.212 11.212-33.635-3.737-44.847v0zM807.241-64h-160.701c-18.686 0-33.635 14.949-33.635 33.635v239.182c0 26.161-18.686 44.847-44.847 44.847h-93.431c-26.161 0-44.847-18.686-44.847-44.847v-239.182c0-18.686-14.949-33.635-33.635-33.635h-168.175c-63.533 0-115.854 52.321-115.854 115.854v298.978h-11.212c-26.161 0-48.584 11.212-67.27 29.898s-29.898 44.847-29.898 71.007c0 26.161 11.212 52.321 29.898 71.007l414.832 407.358c37.372 37.372 100.905 37.372 138.277 0l422.307-422.307c14.949-18.686 18.686-37.372 18.686-59.796 0-56.058-44.847-97.168-97.168-97.168h-11.212v-298.978c0-63.533-48.584-115.854-112.117-115.854zM470.891 264.876h93.431c29.898 0 56.058-26.161 56.058-56.058v-239.182c0-14.949 11.212-22.423 22.423-22.423h160.701c56.058 0 104.642 44.847 104.642 104.642v310.19h22.423c48.584 0 85.956 41.109 85.956 85.956 0 22.423-7.474 44.847-26.161 63.533l-411.095 411.095c-33.635 33.635-89.693 33.635-123.328 0l-411.095-411.095c-18.686-18.686-26.161-37.372-26.161-63.533 0-22.423 7.474-44.847 26.161-63.533 14.949-14.949 37.372-26.161 59.796-26.161h26.161v-310.19c0-56.058 44.847-104.642 104.642-104.642h160.701c14.949 0 22.423 11.212 22.423 22.423v239.182c-3.737 33.635 22.423 59.796 52.321 59.796zM807.241-4.204h-138.277v213.022c0 56.058-44.847 104.642-104.642 104.642h-93.431c-56.058 0-104.642-44.847-104.642-104.642v-213.022h-138.277c-29.898 0-56.058 26.161-56.058 56.058v332.613c0 14.949-11.212 22.423-22.423 22.423h-44.847c-22.423 0-37.372 18.686-37.372 41.109 0 11.212 3.737 18.686 11.212 26.161l411.095 411.095c7.474 7.474 18.686 11.212 26.161 11.212 0 0 0 0 0 0 11.212 0 18.686-3.737 26.161-11.212l414.832-411.095c14.949-14.949 14.949-41.109 0-56.058v0c-7.474-7.474-18.686-11.212-26.161-11.212 0 0 0 0 0 0h-44.847c-14.949 0-22.423-11.212-22.423-22.423v-332.613c0-29.898-26.161-56.058-56.058-56.058zM680.175 7.007h127.066c26.161 0 44.847 18.686 44.847 44.847v332.613c0 18.686 14.949 33.635 33.635 33.635h44.847c0 0 0 0 0 0 7.474 0 14.949 3.737 18.686 7.474v0c11.212 11.212 11.212 26.161 0 37.372v0l-411.095 411.095c-3.737 3.737-11.212 7.474-18.686 7.474 0 0 0 0 0 0-7.474 0-14.949-3.737-18.686-7.474l-411.095-411.095c-11.212 0-14.949-7.474-14.949-14.949 0-14.949 11.212-29.898 26.161-29.898h48.584c18.686 0 33.635-14.949 33.635-33.635v-332.613c0-22.423 18.686-44.847 44.847-44.847h127.066v201.81c0 63.533 52.321 115.854 115.854 115.854h93.431c63.533 0 115.854-52.321 115.854-115.854v-201.81z" />
<glyph unicode="&#xe910;" glyph-name="ordini" horiz-adv-x="812" d="M811.447 115.556l-45.732 576.234c-3.089 37.088-33.867 66.043-71.445 66.219h-90.358v4.045c0 109.322-88.623 197.946-197.946 197.946s-197.946-88.623-197.946-197.946v0-4.045h-90.302c-37.579-0.155-68.354-29.080-71.445-65.881l-0.018-0.263-45.769-576.384c-0.31-3.812-0.487-8.253-0.487-12.734 0-92.092 74.655-166.746 166.746-166.746h478.478c0.002 0 0.004 0 0.006 0 92.092 0 166.746 74.655 166.746 166.746 0 4.508-0.179 8.975-0.53 13.392l0.037-0.583zM268.023 762.054c0 76.195 61.768 137.963 137.963 137.963s137.963-61.768 137.963-137.963v0-4.045h-275.926zM723.542 30.16c-19.377-21.053-47.067-34.197-77.826-34.197-0.172 0-0.345 0-0.517 0.001h-478.451c-0.002 0-0.005 0-0.007 0-58.953 0-106.745 47.791-106.745 106.745 0 2.847 0.111 5.668 0.33 8.459l-0.023-0.369 45.732 576.421c0.499 6.067 5.536 10.804 11.684 10.824h90.342v-73.897c0-16.548 13.415-29.963 29.963-29.963s29.963 13.415 29.963 29.963v0 73.86h275.926v-73.86c0-16.548 13.415-29.963 29.963-29.963s29.963 13.415 29.963 29.963v0 73.86h90.34c6.166-0.042 11.206-4.809 11.683-10.858l0.003-0.041 45.732-576.234c0.225-2.585 0.353-5.594 0.353-8.632 0-27.891-10.807-53.258-28.462-72.142l0.056 0.060z" />
<glyph unicode="&#xe911;" glyph-name="replace" d="M179.339 97.622v70.633h123.594l-9.97 8.579q-68.869 57.415-101.311 122.319-32.441 64.905-32.441 145.647 0 120.302 73.902 214.656t191.143 126.678v-86.634q-80.604-27.315-130.273-98.11-49.669-70.794-49.669-156.591 0-64.788 24.162-112.278t65.623-82.55l28.382-18.782v120.811h70.633v-254.378h-253.775zM600.811 108.799v87.7q81.67 27.315 130.273 98.11t48.603 156.591q0 48.788-24.464 99.478-24.463 50.689-62.585 90.017l-27.316 24.115v-120.811h-71.235v254.378h254.378v-70.633h-125.263l10.573-10.713q65.206-60.94 98.111-131.015t32.905-134.817q0-120.302-73.369-215.189t-190.61-127.212z" />
<glyph unicode="&#xe912;" glyph-name="star" horiz-adv-x="1152" d="M453 622.4l122.8 253 122.8-253c9.2-19 27.2-32.2 48.2-35.4l274.8-40.6-199.6-197.6c-14.8-14.6-21.6-35.6-18-56.2l47-279-245 131c-18.8 10-41.4 10-60.4 0l-245.2-131 47 279c3.4 20.6-3.2 41.4-18 56.2l-199.4 197.6 274.8 40.6c21 3 39 16.4 48.2 35.4zM849.8-58.2c16.2-8.6 35.8-7.4 50.6 3.4s22.4 29 19.4 47l-52.6 311 222.4 220.4c13 12.8 17.4 31.8 11.8 49s-20.6 29.8-38.6 32.6l-306.6 45.2-137.2 282.6c-8 16.6-24.8 27-43.2 27s-35.2-10.4-43.2-27l-137.2-282.6-306.4-45.4c-18-2.6-33-15.2-38.6-32.6s-1-36.2 11.8-49l222.2-220.2-52.4-311c-3-18 4.4-36.2 19.4-47s34.6-12 50.6-3.4l274 146.4 274-146.4z" />
</font>
</defs>
</svg>
